The Dark Knight 2008 Dual Audio Hindi Dubbed Full Movie Free Download 720p HD IMAX BluRay Quality Encoded In x264 With English Subtitles.

The Dark Knight Hindi Dubbed Movie Download 720p HD BluRay With Subtitles

Details Of Full Length Free Videos

Title: The Dark Knight 2008 (Dual Audio)
Genres: Action | Adventure | Thriller
Country: USA | UK
Language: Hindi | English
Release Date: 18 July 2008
Quality: 720p IMAX BluRay x264
Subtitles: English
Audio: DD 5.1CH
Format: MKV
Size: 1.8-GB

IMDb

Storyline

The Dark Knight Hindi Dubbed Movie Download Set within a year after the events of Batman Begins, Batman, Lieutenant James Gordon, and new district attorney Harvey Dent successfully begin to round up the criminals that plague Gotham City until a mysterious and sadistic criminal mastermind known only as the Joker appears in Gotham, creating a new wave of chaos. Batman’s struggle against the Joker becomes deeply personal, forcing him to “confront everything he believes” and improve his technology to stop him. The Dark Knight Hindi Blu Ray Download A love triangle develops between Bruce Wayne, Dent and Rachel Dawes.

About

The Dark Knight is a 2008 superhero film directed, co-produced, and co-written by Christopher Nolan. Based on the DC Comics character Batman, the film is the second part of Nolan’s The Dark Knight Trilogy and a sequel to 2005’s Batman Begins, starring an ensemble cast including Christian Bale, Michael Caine, Heath Ledger, Gary Oldman, Aaron Eckhart, Maggie Gyllenhaal and Morgan Freeman. In the film, Bruce Wayne / Batman (Bale), Police Lieutenant James Gordon (Oldman) and District Attorney Harvey Dent (Eckhart) form an alliance to dismantle organized crime in Gotham City, The Dark Knight Rises Dual Audio Eng Hindi In Blu-ray but are menaced by an anarchist mastermind known as the Joker (Ledger), who seeks to undermine Batman’s influence and turn the city to chaos.

Nolan’s inspiration for the film was the Joker’s comic book debut in 1940, the 1988 graphic novel The Killing Joke, and the 1996 series The Long Halloween, which retold Two-Face’s origin. The “Dark Knight” nickname was first applied to Batman in Batman #1 (1940), in a story written by Bill Finger. The Dark Knight 2008 Dual Audio Eng Hindi In Blu-ray The Dark Knight was filmed primarily in Chicago, as well as in several other locations in the United States, the United Kingdom, and Hong Kong. Nolan used IMAX 70 mm film cameras to film some sequences, including the Joker’s first appearance in the film. Warner Bros. initially created a viral marketing campaign for The Dark Knight, developing promotional websites and trailers highlighting screenshots of Ledger as the Joker. Ledger died on January 22, 2008, some months after the completed filming and six months before the film’s release from a toxic combination of prescription drugs, leading to intense attention from the press and movie-going public The Dark Knight Hollywood Hindi Dubbed Movie Download.

Main Cast

  • Christian Bale
  • Heath Ledger
  • Aaron Eckhart
  • Michael Caine
  • Maggie Gyllenhaal
  • Gary Oldman
  • Morgan Freeman
  • Monique Gabriela Curnen
  • Ron Dean
  • Cillian Murphy
  • Chin Han
  • Nestor Carbonell
  • Eric Roberts
  • Ritchie Coster

MKV File Details

MKV File Details

General
2.The Dark Knight (2008) 720p Dual Audio IMAX BluRay Org DD5.1 [Hindi(640kbps)-English] KartiKing.mkv
Format : Matroska
Format version : Version 4 / Version 2
File size : 2.12 GiB
Duration : 2 h 32 min
Overall bit rate : 1 992 kb/s
Encoded date : UTC 2018-06-13 10:23:54
Writing application : mkvmerge v20.0.0 (‘I Am The Sun’) 32-bit
Writing library : libebml v1.3.5 + libmatroska v1.4.8

Video
ID : 1
Format : AVC
Format/Info : Advanced Video Codec
Format profile : [email protected]
Format settings : CABAC / 5 Ref Frames
Format settings, CABAC : Yes
Format settings, RefFrames : 5 frames
Codec ID : V_MPEG4/ISO/AVC
Duration : 2 h 32 min
Bit rate : 1 156 kb/s
Width : 1 280 pixels
Height : 720 pixels
Display aspect ratio : 16:9
Frame rate mode : Constant
Frame rate : 23.976 (24000/1001) FPS
Color space : YUV
Chroma subsampling : 4:2:0
Bit depth : 8 bits
Scan type : Progressive
Bits/(Pixel*Frame) : 0.052
Stream size : 1.23 GiB (58%)
Language : English
Default : Yes
Forced : No

Audio #1
ID : 2
Format : AAC
Format/Info : Advanced Audio Codec
Format profile : LC
Codec ID : A_AAC-2
Duration : 2 h 32 min
Bit rate : 192 kb/s
Channel(s) : 6 channels
Channel positions : Front: L C R, Side: L R, LFE
Sampling rate : 48.0 kHz
Frame rate : 46.875 FPS (1024 SPF)
Compression mode : Lossy
Delay relative to video : 9 ms
Stream size : 211 MiB (10%)
Language : English
Default : No
Forced : No

Audio #2
ID : 4
Format : AC-3
Format/Info : Audio Coding 3
Codec ID : A_AC3
Duration : 2 h 32 min
Bit rate mode : Constant
Bit rate : 640 kb/s
Channel(s) : 6 channels
Channel positions : Front: L C R, Side: L R, LFE
Sampling rate : 48.0 kHz
Frame rate : 31.250 FPS (1536 SPF)
Bit depth : 16 bits
Compression mode : Lossy
Stream size : 697 MiB (32%)
Language : Hindi
Service kind : Complete Main
Default : Yes
Forced : Yes

Text #1
ID : 3
Format : UTF-8
Codec ID : S_TEXT/UTF8
Codec ID/Info : UTF-8 Plain Text
Duration : 2 h 22 min
Bit rate : 66 b/s
Count of elements : 1824
Stream size : 69.0 KiB (0%)
Language : English
Default : No
Forced : No

Images, Screenshots Of Full Episodes

Some Images Of The Dark Knight 2008 Full Movie In Hindi + English Dual Audio 720p BluRay + ESubs

The Dark Knight Hindi Dubbed Movie Download 720p HD BluRay With Subtitles

The Dark Knight Hindi Dubbed Movie Download 720p HD BluRay With Subtitles

The Dark Knight Hindi Dubbed Movie Download 720p HD BluRay With Subtitles

The Dark Knight Hindi Dubbed Movie Download 720p HD BluRay With Subtitles

The Dark Knight Hindi Dubbed Movie Download 720p HD BluRay With Subtitles

Watch The Full HD 720p, 1080p Movie Trailers

Watch The Dark Knight 2008 Full Movie HD Trailer

Direct Download Links Of The Dark Knight 2008 Movie In Hindi + English Dual 720p BluRay + ESubs Given Below

Free Download Direct Links HD

Direct Links For Premium Users

If you are the member of this site then enter your login details and Enjoy Direct Links

Leave a Reply

Your email address will not be published. Required fields are marked *

Check Also

How to Train Your Dragon: The Hidden World (2019) 720p HDCAM x264 – 700 MB

How to Train Your Dragon The Hidden World 2019 Full Movie Free Download 720p HDCAM Quality…