The Dark Knight Rises 2012 Dual Audio Hindi Dubbed Full Movie Free Download 720p HD IMAX BluRay Quality Encoded In x264 With English Subtitles.

Batman The Dark Knight Rises Hindi Dubbed Movie Download 720p BluRay HD With Subtitles

Details Of Full Length Free Videos

Title: TThe Dark Knight Rises 2012 (Dual Audio)
Genres: Action | Adventure | Thriller
Country: USA | UK
Language: Hindi | English
Release Date: 20 July 2012
Quality: 720p IMAX BluRay x264
Subtitles: English
Audio: DD 5.1CH
Format: MKV
Size: 1.8-GB

IMDb

Storyline

Batman The Dark Knight Rises Hindi Dubbed Download Despite his tarnished reputation after the events of The Dark Knight, in which he took the rap for Dent’s crimes, Batman feels compelled to intervene to assist the city and its police force which is struggling to cope with Bane’s plans to destroy the city.

About

The Dark Knight Rises is a 2012 American-British superhero film directed by Christopher Nolan, who co-wrote the screenplay with his brother Jonathan Nolan, and the story with David S. Goyer. Featuring the DC Comics character Batman, the film is the final installment in Nolan’s The Dark Knight Trilogy, and the sequel to The Dark Knight (2008). Christian Bale reprises the lead role of Bruce Wayne/Batman, with a returning cast of allies: Michael Caine as Alfred Pennyworth, Gary Oldman as James Gordon, and Morgan Freeman as Lucius Fox. The film introduces Selina Kyle (Anne Hathaway) and Bane (Tom Hardy). Eight years after the events of The Dark Knight, merciless revolutionary Batman The Dark Knight Rises Hindi Dubbed Movie Download Bane forces an older Bruce Wayne to resume his role as Batman and save Gotham City from nuclear destruction.

Christopher Nolan was hesitant about returning to the series for a second time, but agreed after developing a story with his brother and Goyer that he felt would conclude the series on a satisfactory note. Nolan drew inspiration from Bane’s comic book debut in the 1993 “Knightfall” storyline, the 1986 series The Dark Knight Returns, and the 1999 storyline “No Man’s Land”. Filming took place from May to November 2011 in locations including Jodhpur, London, Nottingham, Glasgow, Los Angeles, New York City, Newark, and Pittsburgh. Nolan used IMAX 70 mm film cameras for much of the filming, including the first six minutes of the film, to optimize the quality of the picture. A vehicle variation of the Batplane and Batcopter termed the “Bat”, an underground prison set, and a new Batcave set were created specifically for the film. As with The Dark Knight, viral marketing campaigns began early during production. When filming concluded, Warner Bros. refocused its campaign: developing promotional websites, The Dark Knight Rises 2012 Brrip 720p Dual Audio Eng Hindi releasing the first six minutes of the film, screening theatrical trailers, and sending out information regarding the film’s plot.

Main Cast

  • Christian Bale
  • Gary Oldman
  • Tom Hardy
  • Joseph Gordon-Levitt
  • Anne Hathaway
  • Marion Cotillard
  • Morgan Freeman
  • Michael Caine
  • Matthew Modine
  • Alon Aboutboul
  • Ben Mendelsohn
  • Burn Gorman
  • Daniel Sunjata
  • Aidan Gillen
  • Sam Kennard

MKV File Details

MKV File Details

General
3.The Dark Knight Rises (2012) 720p Dual Audio IMAX BluRay Org DD5.1 [Hindi(224kbps)-English] KartiKing.mkv
Format : Matroska
Format version : Version 4 / Version 2
File size : 1.82 GiB
Duration : 2 h 44 min
Overall bit rate : 1 581 kb/s
Encoded date : UTC 2018-06-13 10:29:28
Writing application : mkvmerge v20.0.0 (‘I Am The Sun’) 32-bit
Writing library : libebml v1.3.5 + libmatroska v1.4.8

Video
ID : 1
Format : AVC The Dark Knight Rises (2012) Hindi Dubbed Dual Audio Download
Format/Info : Advanced Video Codec
Format profile : [email protected]
Format settings : CABAC / 5 Ref Frames
Format settings, CABAC : Yes
Format settings, RefFrames : 5 frames
Codec ID : V_MPEG4/ISO/AVC
Duration : 2 h 44 min
Bit rate : 1 167 kb/s
Width : 1 280 pixels
Height : 720 pixels
Display aspect ratio : 16:9
Frame rate mode : Constant
Frame rate : 23.976 (24000/1001) FPS
Color space : YUV
Chroma subsampling : 4:2:0
Bit depth : 8 bits
Scan type : Progressive
Bits/(Pixel*Frame) : 0.053
Stream size : 1.34 GiB (74%)
Language : English
Default : Yes
Forced : Yes

Audio #1
ID : 2
Format : AAC
Format/Info : Advanced Audio Codec
Format profile : LC
Codec ID : A_AAC-2
Duration : 2 h 44 min
Bit rate : 188 kb/s
Channel(s) : 6 channels
Channel positions : Front: L C R, Side: L R, LFE
Sampling rate : 48.0 kHz
Frame rate : 46.875 FPS (1024 SPF)
Compression mode : Lossy
Delay relative to video : 9 ms
Stream size : 221 MiB (12%)
Language : English
Default : No
Forced : No

Audio #2
ID : 4
Format : AC-3
Format/Info : Audio Coding 3
Codec ID : A_AC3
Duration : 2 h 44 min
Bit rate mode : Constant
Bit rate : 224 kb/s
Channel(s) : 6 channels
Channel positions : Front: L C R, Side: L R, LFE
Sampling rate : 48.0 kHz
Frame rate : 31.250 FPS (1536 SPF)
Bit depth : 16 bits
Compression mode : Lossy
Stream size : 264 MiB (14%)
Language : Hindi
Service kind : Complete Main
Default : Yes
Forced : Yes

Text #1
ID : 3
Format : UTF-8
Codec ID : S_TEXT/UTF8
Codec ID/Info : UTF-8 Plain Text
Duration : 2 h 34 min
Bit rate : 57 b/s
Count of elements : 1807
Stream size : 64.9 KiB (0%)
Language : English
Default : No
Forced : No

Images, Screenshots Of Full Episodes

Some Images Of The Dark Knight Rises 2012 Full Movie In Hindi + English Dual Audio 720p BluRay + ESubs

Batman The Dark Knight Rises Hindi Dubbed Movie Download 720p BluRay HD With Subtitles

Batman The Dark Knight Rises Hindi Dubbed Movie Download 720p BluRay HD With Subtitles

Batman The Dark Knight Rises Hindi Dubbed Movie Download 720p BluRay HD With Subtitles

Batman The Dark Knight Rises Hindi Dubbed Movie Download 720p BluRay HD With Subtitles

Batman The Dark Knight Rises Hindi Dubbed Movie Download 720p BluRay HD With Subtitles

Batman The Dark Knight Rises Hindi Dubbed Movie Download 720p BluRay HD With Subtitles

Batman The Dark Knight Rises Hindi Dubbed Movie Download 720p BluRay HD With Subtitles

Watch The Full HD 720p, 1080p Movie Trailers

Watch The Dark Knight Rises 2012 Full Movie HD Trailer

Direct Download Links Of The Dark Knight Rises 2012 Movie In Hindi + English Dual 720p BluRay + ESubs Given Below

Free Download Direct Links HD

Direct Links For Premium Users

If you are the member of this site then enter your login details and Enjoy Direct Links

Leave a Reply

Your email address will not be published. Required fields are marked *

Check Also

How to Train Your Dragon: The Hidden World (2019) 720p HDCAM x264 – 700 MB

How to Train Your Dragon The Hidden World 2019 Full Movie Free Download 720p HDCAM Quality…